  0
SECTION
  2
HEADER
  9
$ACADVER
  1
AC1014
  9
$ACADMAINTVER
 70
     9
  9
$DWGCODEPAGE
  3
ANSI_1252
  9
$INSBASE
 10
0.0
 20
0.0
 30
0.0
  9
$EXTMIN
 10
2.072636147341861
 20
5.3381701235609
 30
0.0
  9
$EXTMAX
 10
9.720811144636726
 20
8.679734508005378
 30
0.0
  9
$LIMMIN
 10
0.0
 20
0.0
  9
$LIMMAX
 10
12.0
 20
9.0
  9
$ORTHOMODE
 70
     0
  9
$REGENMODE
 70
     1
  9
$FILLMODE
 70
     1
  9
$QTEXTMODE
 70
     0
  9
$MIRRTEXT
 70
     1
  9
$DRAGMODE
 70
     2
  9
$LTSCALE
 40
1.0
  9
$OSMODE
 70
     0
  9
$ATTMODE
 70
     1
  9
$TEXTSIZE
 40
0.2
  9
$TRACEWID
 40
0.05
  9
$TEXTSTYLE
  7
STANDARD
  9
$CLAYER
  8
0
  9
$CELTYPE
  6
BYLAYER
  9
$CECOLOR
 62
   256
  9
$CELTSCALE
 40
1.0
  9
$DELOBJ
 70
     1
  9
$DISPSILH
 70
     0
  9
$DIMSCALE
 40
1.0
  9
$DIMASZ
 40
0.18
  9
$DIMEXO
 40
0.0625
  9
$DIMDLI
 40
0.38
  9
$DIMRND
 40
0.0
  9
$DIMDLE
 40
0.0
  9
$DIMEXE
 40
0.18
  9
$DIMTP
 40
0.0
  9
$DIMTM
 40
0.0
  9
$DIMTXT
 40
0.18
  9
$DIMCEN
 40
0.09
  9
$DIMTSZ
 40
0.0
  9
$DIMTOL
 70
     0
  9
$DIMLIM
 70
     0
  9
$DIMTIH
 70
     1
  9
$DIMTOH
 70
     1
  9
$DIMSE1
 70
     0
  9
$DIMSE2
 70
     0
  9
$DIMTAD
 70
     0
  9
$DIMZIN
 70
     0
  9
$DIMBLK
  1

  9
$DIMASO
 70
     1
  9
$DIMSHO
 70
     1
  9
$DIMPOST
  1

  9
$DIMAPOST
  1

  9
$DIMALT
 70
     0
  9
$DIMALTD
 70
     2
  9
$DIMALTF
 40
25.4
  9
$DIMLFAC
 40
1.0
  9
$DIMTOFL
 70
     0
  9
$DIMTVP
 40
0.0
  9
$DIMTIX
 70
     0
  9
$DIMSOXD
 70
     0
  9
$DIMSAH
 70
     0
  9
$DIMBLK1
  1

  9
$DIMBLK2
  1

  9
$DIMSTYLE
  2
STANDARD
  9
$DIMCLRD
 70
     0
  9
$DIMCLRE
 70
     0
  9
$DIMCLRT
 70
     0
  9
$DIMTFAC
 40
1.0
  9
$DIMGAP
 40
0.09
  9
$DIMJUST
 70
     0
  9
$DIMSD1
 70
     0
  9
$DIMSD2
 70
     0
  9
$DIMTOLJ
 70
     1
  9
$DIMTZIN
 70
     0
  9
$DIMALTZ
 70
     0
  9
$DIMALTTZ
 70
     0
  9
$DIMFIT
 70
     3
  9
$DIMUPT
 70
     0
  9
$DIMUNIT
 70
     2
  9
$DIMDEC
 70
     2
  9
$DIMTDEC
 70
     2
  9
$DIMALTU
 70
     2
  9
$DIMALTTD
 70
     2
  9
$DIMTXSTY
  7
STANDARD
  9
$DIMAUNIT
 70
     0
  9
$LUNITS
 70
     2
  9
$LUPREC
 70
     4
  9
$SKETCHINC
 40
0.1
  9
$FILLETRAD
 40
0.5
  9
$AUNITS
 70
     0
  9
$AUPREC
 70
     0
  9
$MENU
  1
.
  9
$ELEVATION
 40
0.0
  9
$PELEVATION
 40
0.0
  9
$THICKNESS
 40
0.0
  9
$LIMCHECK
 70
     0
  9
$BLIPMODE
 70
     0
  9
$CHAMFERA
 40
0.5
  9
$CHAMFERB
 40
0.5
  9
$CHAMFERC
 40
1.0
  9
$CHAMFERD
 40
0.0
  9
$SKPOLY
 70
     0
  9
$TDCREATE
 40
2452181.630784028
  9
$TDUPDATE
 40
2452643.321894445
  9
$TDINDWG
 40
0.0014133102
  9
$TDUSRTIMER
 40
0.0014133102
  9
$USRTIMER
 70
     1
  9
$ANGBASE
 50
0.0
  9
$ANGDIR
 70
     0
  9
$PDMODE
 70
     0
  9
$PDSIZE
 40
0.0
  9
$PLINEWID
 40
0.0
  9
$COORDS
 70
     1
  9
$SPLFRAME
 70
     0
  9
$SPLINETYPE
 70
     6
  9
$SPLINESEGS
 70
     8
  9
$ATTDIA
 70
     1
  9
$ATTREQ
 70
     1
  9
$HANDLING
 70
-16383
  9
$HANDSEED
  5
2D8
  9
$SURFTAB1
 70
     6
  9
$SURFTAB2
 70
     6
  9
$SURFTYPE
 70
     6
  9
$SURFU
 70
     6
  9
$SURFV
 70
     6
  9
$UCSNAME
  2

  9
$UCSORG
 10
0.0
 20
0.0
 30
0.0
  9
$UCSXDIR
 10
1.0
 20
0.0
 30
0.0
  9
$UCSYDIR
 10
0.0
 20
1.0
 30
0.0
  9
$PUCSNAME
  2

  9
$PUCSORG
 10
0.0
 20
0.0
 30
0.0
  9
$PUCSXDIR
 10
1.0
 20
0.0
 30
0.0
  9
$PUCSYDIR
 10
0.0
 20
1.0
 30
0.0
  9
$USERI1
 70
     0
  9
$USERI2
 70
     0
  9
$USERI3
 70
     0
  9
$USERI4
 70
     0
  9
$USERI5
 70
     0
  9
$USERR1
 40
0.0
  9
$USERR2
 40
0.0
  9
$USERR3
 40
0.0
  9
$USERR4
 40
0.0
  9
$USERR5
 40
0.0
  9
$WORLDVIEW
 70
     1
  9
$SHADEDGE
 70
     3
  9
$SHADEDIF
 70
    70
  9
$TILEMODE
 70
     1
  9
$MAXACTVP
 70
    64
  9
$PINSBASE
 10
0.0
 20
0.0
 30
0.0
  9
$PLIMCHECK
 70
     0
  9
$PEXTMIN
 10
1.000000000000000E+20
 20
1.000000000000000E+20
 30
1.000000000000000E+20
  9
$PEXTMAX
 10
-1.000000000000000E+20
 20
-1.000000000000000E+20
 30
-1.000000000000000E+20
  9
$PLIMMIN
 10
0.0
 20
0.0
  9
$PLIMMAX
 10
12.0
 20
9.0
  9
$UNITMODE
 70
     0
  9
$VISRETAIN
 70
     1
  9
$PLINEGEN
 70
     0
  9
$PSLTSCALE
 70
     1
  9
$TREEDEPTH
 70
  3020
  9
$PICKSTYLE
 70
     1
  9
$CMLSTYLE
  2
STANDARD
  9
$CMLJUST
 70
     0
  9
$CMLSCALE
 40
1.0
  9
$PROXYGRAPHICS
 70
     1
  9
$MEASUREMENT
 70
     0
  0
ENDSEC
  0
SECTION
  2
CLASSES
  0
CLASS
  1
ACDBDICTIONARYWDFLT
  2
AcDbDictionaryWithDefault
  3
AutoCAD 2000
 90
        0
280
     0
281
     0
  0
CLASS
  1
ACDBPLACEHOLDER
  2
AcDbPlaceHolder
  3
AutoCAD 2000
 90
        0
280
     0
281
     0
  0
CLASS
  1
LAYOUT
  2
AcDbLayout
  3
AutoCAD 2000
 90
        0
280
     0
281
     0
  0
CLASS
  1
LONG_TRANSACTION
  2
AcDbLongTransaction
  3
AutoCAD 2000
 90
        0
280
     0
281
     0
  0
CLASS
  1
LWPOLYLINE
  2
AcDbPolyline
  3
AutoCAD 2000
 90
        0
280
     0
281
     1
  0
CLASS
  1
HATCH
  2
AcDbHatch
  3
AutoCAD 2000
 90
        0
280
     0
281
     1
  0
CLASS
  1
XRECORD
  2
AcDbXrecord
  3
AutoCAD 2000
 90
        0
280
     0
281
     0
  0
ENDSEC
  0
SECTION
  2
TABLES
  0
TABLE
  2
VPORT
  5
8
330
0
100
AcDbSymbolTable
 70
     3
  0
VPORT
  5
2B1
330
8
100
AcDbSymbolTableRecord
100
AcDbViewportTableRecord
  2
*ACTIVE
 70
     0
 10
0.0
 20
0.0
 11
1.0
 21
1.0
 12
6.581364533710301
 22
5.283088231257247
 13
0.0
 23
0.0
 14
0.5
 24
0.5
 15
0.5
 25
0.5
 16
0.0
 26
0.0
 36
1.0
 17
0.0
 27
0.0
 37
0.0
 40
9.001656888012501
 41
1.462515883100381
 42
50.0
 43
0.0
 44
0.0
 50
0.0
 51
0.0
 71
     0
 72
   100
 73
     1
 74
     3
 75
     0
 76
     0
 77
     0
 78
     0
  0
ENDTAB
  0
TABLE
  2
LTYPE
  5
5
330
0
100
AcDbSymbolTable
 70
     1
  0
LTYPE
  5
14
330
5
100
AcDbSymbolTableRecord
100
AcDbLinetypeTableRecord
  2
BYBLOCK
 70
     0
  3

 72
    65
 73
     0
 40
0.0
  0
LTYPE
  5
15
330
5
100
AcDbSymbolTableRecord
100
AcDbLinetypeTableRecord
  2
BYLAYER
 70
     0
  3

 72
    65
 73
     0
 40
0.0
  0
LTYPE
  5
16
330
5
100
AcDbSymbolTableRecord
100
AcDbLinetypeTableRecord
  2
CONTINUOUS
 70
     0
  3
Solid line
 72
    65
 73
     0
 40
0.0
  0
ENDTAB
  0
TABLE
  2
LAYER
  5
2
330
0
100
AcDbSymbolTable
 70
     4
  0
LAYER
  5
10
330
2
100
AcDbSymbolTableRecord
100
AcDbLayerTableRecord
  2
0
 70
     0
 62
     7
  6
CONTINUOUS
  0
LAYER
  5
34
330
2
100
AcDbSymbolTableRecord
100
AcDbLayerTableRecord
  2
L
 70
     0
 62
     7
  6
CONTINUOUS
  0
LAYER
  5
45
330
2
100
AcDbSymbolTableRecord
100
AcDbLayerTableRecord
  2
DEFPOINTS
 70
     0
 62
     7
  6
CONTINUOUS
  0
LAYER
  5
88
330
2
100
AcDbSymbolTableRecord
100
AcDbLayerTableRecord
  2
TX
 70
     0
 62
   150
  6
CONTINUOUS
  0
ENDTAB
  0
TABLE
  2
STYLE
  5
3
330
0
100
AcDbSymbolTable
 70
     3
  0
STYLE
  5
11
330
3
100
AcDbSymbolTableRecord
100
AcDbTextStyleTableRecord
  2
STANDARD
 70
     0
 40
0.0
 41
1.0
 50
0.0
 71
     0
 42
0.2
  3
txt
  4

  0
STYLE
  5
35
330
3
100
AcDbSymbolTableRecord
100
AcDbTextStyleTableRecord
  2
REG
 70
     0
 40
0.0
 41
1.0
 50
0.0
 71
     0
 42
0.09375
  3
E:\R13\com\fonts\ARCHITXT.SHX
  4

  0
STYLE
  5
36
330
3
100
AcDbSymbolTableRecord
100
AcDbTextStyleTableRecord
  2
DIMTXT
 70
     0
 40
0.0
 41
1.0
 50
0.0
 71
     0
 42
1.125
  3
archt.shx
  4

  0
ENDTAB
  0
TABLE
  2
VIEW
  5
6
330
0
100
AcDbSymbolTable
 70
     0
  0
ENDTAB
  0
TABLE
  2
UCS
  5
7
330
0
100
AcDbSymbolTable
 70
     0
  0
ENDTAB
  0
TABLE
  2
APPID
  5
9
330
0
100
AcDbSymbolTable
 70
     1
  0
APPID
  5
12
330
9
100
AcDbSymbolTableRecord
100
AcDbRegAppTableRecord
  2
ACAD
 70
     0
  0
ENDTAB
  0
TABLE
  2
DIMSTYLE
  5
A
330
0
100
AcDbSymbolTable
 70
     6
  0
DIMSTYLE
105
27
102
{ACAD_REACTORS
330
C1
330
CF
102
}
330
A
100
AcDbSymbolTableRecord
100
AcDbDimStyleTableRecord
  2
STANDARD
 70
     0
  3

  4

  5

  6

  7

 40
1.0
 41
0.18
 42
0.0625
 43
0.38
 44
0.18
 45
0.0
 46
0.0
 47
0.0
 48
0.0
140
0.18
141
0.09
142
0.0
143
25.4
144
1.0
145
0.0
146
1.0
147
0.09
 71
     0
 72
     0
 73
     1
 74
     1
 75
     0
 76
     0
 77
     0
 78
     0
170
     0
171
     2
172
     0
173
     0
174
     0
175
     0
176
     0
177
     0
178
     0
270
     2
271
     2
272
     2
273
     2
274
     2
340
11
275
     0
280
     0
281
     0
282
     0
283
     1
284
     0
285
     0
286
     0
287
     3
288
     0
  0
DIMSTYLE
105
37
330
A
100
AcDbSymbolTableRecord
100
AcDbDimStyleTableRecord
  2
1
 70
     0
  3

  4

  5

  6

  7

 40
1.0
 41
1.125
 42
0.5
 43
0.375
 44
1.19921875
 45
0.0
 46
0.5
 47
0.0
 48
0.0
140
1.125
141
0.125
142
0.0
143
25.4
144
1.0
145
0.0
146
0.8
147
0.5625
 71
     0
 72
     0
 73
     0
 74
     0
 75
     0
 76
     0
 77
     1
 78
     3
170
     0
171
     2
172
     1
173
     0
174
     1
175
     0
176
   133
177
   133
178
   150
270
     2
271
     3
272
     3
273
     2
274
     2
340
36
275
     0
280
     0
281
     0
282
     0
283
     1
284
     0
285
     0
286
     0
287
     4
288
     0
  0
DIMSTYLE
105
38
330
A
100
AcDbSymbolTableRecord
100
AcDbDimStyleTableRecord
  2
1$2
 70
     0
  3

  4

  5
DOTSMALL
  6

  7

 40
1.0
 41
1.5
 42
0.5
 43
0.375
 44
1.19921875
 45
0.0
 46
0.5
 47
0.0
 48
0.0
140
0.75
141
0.125
142
0.0
143
25.4
144
1.0
145
0.0
146
0.8
147
0.5625
 71
     0
 72
     0
 73
     0
 74
     0
 75
     0
 76
     0
 77
     1
 78
     3
170
     0
171
     2
172
     1
173
     0
174
     1
175
     0
176
   133
177
   133
178
   150
270
     2
271
     3
272
     3
273
     2
274
     2
340
36
275
     0
280
     0
281
     0
282
     0
283
     1
284
     0
285
     0
286
     0
287
     4
288
     0
  0
DIMSTYLE
105
39
330
A
100
AcDbSymbolTableRecord
100
AcDbDimStyleTableRecord
  2
1$4
 70
     0
  3

  4

  5

  6

  7
DOTSMALL
 40
1.0
 41
1.5
 42
0.5
 43
0.375
 44
1.19921875
 45
0.0
 46
0.5
 47
0.0
 48
0.0
140
0.75
141
0.125
142
0.0
143
25.4
144
1.0
145
0.0
146
0.8
147
0.5625
 71
     0
 72
     0
 73
     0
 74
     0
 75
     0
 76
     0
 77
     1
 78
     3
170
     0
171
     2
172
     1
173
     1
174
     1
175
     0
176
   133
177
   133
178
   150
270
     2
271
     3
272
     3
273
     2
274
     2
340
36
275
     0
280
     0
281
     0
282
     0
283
     1
284
     0
285
     0
286
     0
287
     4
288
     0
  0
DIMSTYLE
105
3A
330
A
100
AcDbSymbolTableRecord
100
AcDbDimStyleTableRecord
  2
1$3
 70
     0
  3

  4

  5
DOTSMALL
  6

  7

 40
1.0
 41
1.5
 42
0.5
 43
0.375
 44
1.19921875
 45
0.0
 46
0.5
 47
0.0
 48
0.0
140
0.75
141
0.125
142
0.0
143
25.4
144
1.0
145
0.0
146
0.8
147
0.5625
 71
     0
 72
     0
 73
     0
 74
     0
 75
     0
 76
     0
 77
     1
 78
     3
170
     0
171
     2
172
     1
173
     0
174
     1
175
     0
176
   133
177
   133
178
   150
270
     2
271
     3
272
     3
273
     2
274
     2
340
36
275
     0
280
     0
281
     0
282
     0
283
     1
284
     0
285
     0
286
     0
287
     4
288
     0
  0
DIMSTYLE
105
3B
330
A
100
AcDbSymbolTableRecord
100
AcDbDimStyleTableRecord
  2
1$7
 70
     0
  3

  4

  5

  6

  7

 40
1.0
 41
1.0
 42
0.5
 43
0.375
 44
1.19921875
 45
0.0
 46
0.5
 47
0.0
 48
0.0
140
0.75
141
0.125
142
0.0
143
25.4
144
1.0
145
0.0
146
0.8
147
0.5625
 71
     0
 72
     0
 73
     0
 74
     0
 75
     0
 76
     0
 77
     1
 78
     3
170
     0
171
     2
172
     1
173
     0
174
     1
175
     0
176
   133
177
   133
178
   150
270
     2
271
     3
272
     3
273
     2
274
     2
340
36
275
     0
280
     0
281
     0
282
     0
283
     1
284
     0
285
     0
286
     0
287
     4
288
     0
  0
ENDTAB
  0
TABLE
  2
BLOCK_RECORD
  5
1
330
0
100
AcDbSymbolTable
 70
     5
  0
BLOCK_RECORD
  5
1F
102
{ACAD_XDICTIONARY
360
2D4
102
}
330
1
100
AcDbSymbolTableRecord
100
AcDbBlockTableRecord
  2
*MODEL_SPACE
  0
BLOCK_RECORD
  5
1B
102
{ACAD_XDICTIONARY
360
2D2
102
}
330
1
100
AcDbSymbolTableRecord
100
AcDbBlockTableRecord
  2
*PAPER_SPACE
  0
BLOCK_RECORD
  5
2B
330
1
100
AcDbSymbolTableRecord
100
AcDbBlockTableRecord
  2
_DOT
  0
BLOCK_RECORD
  5
30
330
1
100
AcDbSymbolTableRecord
100
AcDbBlockTableRecord
  2
_DOTSMALL
  0
BLOCK_RECORD
  5
C2
330
1
100
AcDbSymbolTableRecord
100
AcDbBlockTableRecord
  2
*D3
  0
BLOCK_RECORD
  5
D0
330
1
100
AcDbSymbolTableRecord
100
AcDbBlockTableRecord
  2
*D4
  0
ENDTAB
  0
ENDSEC
  0
SECTION
  2
BLOCKS
  0
BLOCK
  5
20
330
1F
100
AcDbEntity
  8
0
100
AcDbBlockBegin
  2
*MODEL_SPACE
 70
     0
 10
0.0
 20
0.0
 30
0.0
  3
*MODEL_SPACE
  1

  0
ENDBLK
  5
21
330
1F
100
AcDbEntity
  8
0
100
AcDbBlockEnd
  0
BLOCK
  5
1C
330
1B
100
AcDbEntity
 67
     1
  8
0
100
AcDbBlockBegin
  2
*PAPER_SPACE
 70
     0
 10
0.0
 20
0.0
 30
0.0
  3
*PAPER_SPACE
  1

  0
ENDBLK
  5
1D
330
1B
100
AcDbEntity
 67
     1
  8
0
100
AcDbBlockEnd
  0
BLOCK
  5
2E
330
2B
100
AcDbEntity
  8
0
100
AcDbBlockBegin
  2
_DOT
 70
     0
 10
0.0
 20
0.0
 30
0.0
  3
_DOT
  1

  0
LWPOLYLINE
  5
2C
330
2B
100
AcDbEntity
  8
L
 62
     0
100
AcDbPolyline
 90
        2
 70
     1
 43
0.5
 10
-0.25
 20
0.0
 42
1.0
 10
0.25
 20
0.0
 42
1.0
  0
LINE
  5
2D
330
2B
100
AcDbEntity
  8
L
 62
     0
100
AcDbLine
 10
-0.5
 20
0.0
 30
0.0
 11
-1.0
 21
0.0
 31
0.0
  0
ENDBLK
  5
2F
330
2B
100
AcDbEntity
  8
0
100
AcDbBlockEnd
  0
BLOCK
  5
32
330
30
100
AcDbEntity
  8
0
 48
0.116666
100
AcDbBlockBegin
  2
_DOTSMALL
 70
     0
 10
0.0
 20
0.0
 30
0.0
  3
_DOTSMALL
  1

  0
LWPOLYLINE
  5
31
330
30
100
AcDbEntity
  8
0
  6
BYBLOCK
 62
     0
100
AcDbPolyline
 90
        2
 70
     1
 43
0.5
 10
-0.0625
 20
0.0
 42
1.0
 10
0.0625
 20
0.0
 42
1.0
  0
ENDBLK
  5
33
330
30
100
AcDbEntity
  8
0
 48
0.116666
100
AcDbBlockEnd
  0
BLOCK
  5
CD
330
C2
100
AcDbEntity
  8
0
100
AcDbBlockBegin
  2
*D3
 70
     1
 10
0.0
 20
0.0
 30
0.0
  3
*D3
  1

  0
LINE
  5
C3
330
C2
100
AcDbEntity
  8
0
 62
     0
100
AcDbLine
 10
2.927183727638777
 20
6.943206767683445
 30
0.0
 11
2.927183727638777
 21
8.679734508005378
 31
0.0
  0
LINE
  5
C4
330
C2
100
AcDbEntity
  8
0
 62
     0
100
AcDbLine
 10
9.714183727638754
 20
7.95870676768342
 30
0.0
 11
9.714183727638754
 21
8.679734508005378
 31
0.0
  0
LINE
  5
C5
330
C2
100
AcDbEntity
  8
0
 62
     0
100
AcDbLine
 10
3.107183727638777
 20
8.499734508005378
 30
0.0
 11
5.960683727638765
 21
8.499734508005378
 31
0.0
  0
LINE
  5
C6
330
C2
100
AcDbEntity
  8
0
 62
     0
100
AcDbLine
 10
9.534183727638755
 20
8.499734508005378
 30
0.0
 11
6.680683727638766
 21
8.499734508005378
 31
0.0
  0
SOLID
  5
C7
330
C2
100
AcDbEntity
  8
0
 62
     0
100
AcDbTrace
 10
3.107183727638777
 20
8.529734508005377
 30
0.0
 11
3.107183727638777
 21
8.469734508005378
 31
0.0
 12
2.927183727638777
 22
8.499734508005378
 32
0.0
 13
2.927183727638777
 23
8.499734508005378
 33
0.0
  0
SOLID
  5
C8
330
C2
100
AcDbEntity
  8
0
 62
     0
100
AcDbTrace
 10
9.534183727638755
 20
8.529734508005377
 30
0.0
 11
9.534183727638755
 21
8.469734508005378
 31
0.0
 12
9.714183727638754
 22
8.499734508005378
 32
0.0
 13
9.714183727638754
 23
8.499734508005378
 33
0.0
  0
MTEXT
  5
C9
330
C2
100
AcDbEntity
  8
0
 62
     0
100
AcDbMText
 10
6.320683727638765
 20
8.499734508005378
 30
0.0
 40
0.18
 41
0.0
 71
     5
 72
     1
  1
\A1;6.79
1001
ACAD
1000
MTEXTBEGIN
1070
    73
1070
     1
1070
    44
1040
1.0
1070
    74
1070
     0
1000
MTEXTEND
  0
POINT
  5
CA
330
C2
100
AcDbEntity
  8
DEFPOINTS
 62
     0
100
AcDbPoint
 10
2.927183727638777
 20
6.880706767683445
 30
0.0
  0
POINT
  5
CB
330
C2
100
AcDbEntity
  8
DEFPOINTS
 62
     0
100
AcDbPoint
 10
9.714183727638754
 20
7.89620676768342
 30
0.0
  0
POINT
  5
CC
330
C2
100
AcDbEntity
  8
DEFPOINTS
 62
     0
100
AcDbPoint
 10
9.714183727638754
 20
8.499734508005378
 30
0.0
  0
ENDBLK
  5
CE
330
C2
100
AcDbEntity
  8
0
100
AcDbBlockEnd
  0
BLOCK
  5
DB
330
D0
100
AcDbEntity
  8
0
100
AcDbBlockBegin
  2
*D4
 70
     1
 10
0.0
 20
0.0
 30
0.0
  3
*D4
  1

  0
LINE
  5
D1
330
D0
100
AcDbEntity
  8
0
 62
     0
100
AcDbLine
 10
3.50468372763882
 20
7.911206767683406
 30
0.0
 11
2.117636147341862
 21
7.911206767683406
 31
0.0
  0
LINE
  5
D2
330
D0
100
AcDbEntity
  8
0
 62
     0
100
AcDbLine
 10
3.109683727638838
 20
6.211206767683361
 30
0.0
 11
2.117636147341861
 21
6.211206767683361
 31
0.0
  0
LINE
  5
D3
330
D0
100
AcDbEntity
  8
0
 62
     0
100
AcDbLine
 10
2.297636147341862
 20
7.731206767683406
 30
0.0
 11
2.297636147341862
 21
7.241206767683383
 31
0.0
  0
LINE
  5
D4
330
D0
100
AcDbEntity
  8
0
 62
     0
100
AcDbLine
 10
2.297636147341862
 20
6.39120676768336
 30
0.0
 11
2.297636147341862
 21
6.881206767683384
 31
0.0
  0
SOLID
  5
D5
330
D0
100
AcDbEntity
  8
0
 62
     0
100
AcDbTrace
 10
2.267636147341862
 20
7.731206767683406
 30
0.0
 11
2.327636147341862
 21
7.731206767683406
 31
0.0
 12
2.297636147341862
 22
7.911206767683406
 32
0.0
 13
2.297636147341862
 23
7.911206767683406
 33
0.0
  0
SOLID
  5
D6
330
D0
100
AcDbEntity
  8
0
 62
     0
100
AcDbTrace
 10
2.267636147341862
 20
6.39120676768336
 30
0.0
 11
2.327636147341861
 21
6.39120676768336
 31
0.0
 12
2.297636147341862
 22
6.211206767683361
 32
0.0
 13
2.297636147341862
 23
6.211206767683361
 33
0.0
  0
MTEXT
  5
D7
330
D0
100
AcDbEntity
  8
0
 62
     0
100
AcDbMText
 10
2.297636147341861
 20
7.061206767683384
 30
0.0
 40
0.18
 41
0.0
 71
     5
 72
     1
  1
\A1;1.70
1001
ACAD
1000
MTEXTBEGIN
1070
    73
1070
     1
1070
    44
1040
1.0
1070
    74
1070
     0
1000
MTEXTEND
  0
POINT
  5
D8
330
D0
100
AcDbEntity
  8
DEFPOINTS
 62
     0
100
AcDbPoint
 10
3.56718372763882
 20
7.911206767683406
 30
0.0
  0
POINT
  5
D9
330
D0
100
AcDbEntity
  8
DEFPOINTS
 62
     0
100
AcDbPoint
 10
3.172183727638838
 20
6.211206767683361
 30
0.0
  0
POINT
  5
DA
330
D0
100
AcDbEntity
  8
DEFPOINTS
 62
     0
100
AcDbPoint
 10
2.297636147341862
 20
6.211206767683361
 30
0.0
  0
ENDBLK
  5
DC
330
D0
100
AcDbEntity
  8
0
100
AcDbBlockEnd
  0
ENDSEC
  0
SECTION
  2
ENTITIES
  0
LWPOLYLINE
  5
BD
330
1F
100
AcDbEntity
  8
L
 62
     5
 48
0.233332
100
AcDbPolyline
 90
        2
 70
     0
 43
0.028125
 10
3.895511303009254
 20
5.528888724862632
 10
7.228495139216203
 20
5.528888724862632
  0
TEXT
  5
BE
330
1F
100
AcDbEntity
  8
L
 62
     3
 48
0.233332
100
AcDbText
 10
3.989247145690239
 20
5.622624567543674
 30
0.0
 40
0.140625
  1
SINGLE FACE BODY #2025
  7
REG
100
AcDbText
  0
TEXT
  5
BF
330
1F
100
AcDbEntity
  8
TX
 48
0.233332
100
AcDbText
 10
3.989247145690239
 20
5.34140288218159
 30
0.0
 40
0.09375
  1
SCALE : FULL SIZE
  7
REG
 11
3.989247145690239
 21
5.43515288218159
 31
0.0
100
AcDbText
 73
     3
  0
DIMENSION
  5
C1
330
1F
100
AcDbEntity
  8
0
100
AcDbDimension
  2
*D3
 10
9.714183727638754
 20
8.499734508005378
 30
0.0
 11
6.320683727638765
 21
8.499734508005378
 31
0.0
 70
    32
  3
STANDARD
100
AcDbAlignedDimension
 13
2.927183727638777
 23
6.880706767683445
 33
0.0
 14
9.714183727638754
 24
7.89620676768342
 34
0.0
100
AcDbRotatedDimension
  0
DIMENSION
  5
CF
330
1F
100
AcDbEntity
  8
0
100
AcDbDimension
  2
*D4
 10
2.297636147341862
 20
6.211206767683361
 30
0.0
 11
2.297636147341861
 21
7.061206767683384
 31
0.0
 70
    32
  3
STANDARD
100
AcDbAlignedDimension
 13
3.56718372763882
 23
7.911206767683406
 33
0.0
 14
3.172183727638838
 24
6.211206767683361
 34
0.0
 50
90.0
100
AcDbRotatedDimension
  0
LWPOLYLINE
  5
1CD
330
1F
100
AcDbEntity
  8
L
 62
     5
100
AcDbPolyline
 90
      227
 70
     1
 43
0.0
 10
3.374302672093803
 20
6.813332407690986
 42
-0.5620869863760394
 10
3.374302672093762
 20
6.803081127675877
 10
3.35006478318377
 20
6.788332407690982
 42
0.5620869863792799
 10
3.350064783183796
 20
6.778081127675786
 10
3.374302672093787
 20
6.763332407691006
 42
-0.5620869863792796
 10
3.374302672093762
 20
6.753081127675809
 10
3.350064783183754
 20
6.738332407690941
 42
0.5620869863760394
 10
3.350064783183796
 20
6.728081127675832
 10
3.374302672093753
 20
6.713332407690881
 42
-0.5620869863760391
 10
3.374302672093762
 20
6.703081127675854
 10
3.350064783183754
 20
6.688332407690986
 42
0.5620869863760394
 10
3.350064783183796
 20
6.678081127675877
 10
3.374302672093787
 20
6.663332407690983
 42
-0.5620869863792796
 10
3.374302672093762
 20
6.653081127675786
 10
3.35006478318377
 20
6.638332407691005
 42
0.5620869863792799
 10
3.350064783183796
 20
6.628081127675809
 10
3.374302672093803
 20
6.613332407690941
 42
-0.5620869863760394
 10
3.374302672093762
 20
6.603081127675832
 10
3.350064783183805
 20
6.58833240769088
 42
0.5620869863760394
 10
3.350064783183796
 20
6.578081127675854
 10
3.374302672093803
 20
6.563332407690986
 42
-0.5620869863760394
 10
3.374302672093762
 20
6.553081127675877
 10
3.35006478318377
 20
6.538332407690982
 42
0.5620869863792799
 10
3.350064783183796
 20
6.528081127675786
 10
3.374302672093757
 20
6.513332407690955
 42
-0.2617834247897967
 10
3.377183727638765
 20
6.508206767683386
 10
3.377183727638709
 20
6.376206767683324
 42
-0.4142135623727033
 10
3.292183727638729
 20
6.291206767683402
 10
3.212183727638802
 20
6.291206767683458
 42
-0.4142135623727035
 10
3.127183727638765
 20
6.376206767683324
 10
3.12718372763886
 20
6.483206767683409
 42
-0.2617834247873661
 10
3.130064783183769
 20
6.488332407690986
 10
3.15430267209376
 20
6.503081127675766
 42
0.5620869863792796
 10
3.154302672093734
 20
6.513332407690963
 10
3.130064783183743
 20
6.528081127675743
 42
-0.5620869863792799
 10
3.130064783183769
 20
6.538332407690941
 10
3.154302672093725
 20
6.553081127675891
 42
0.5620869863760394
 10
3.154302672093734
 20
6.563332407690918
 10
3.130064783183727
 20
6.578081127675786
 42
-0.5620869863760394
 10
3.130064783183769
 20
6.588332407690895
 10
3.15430267209376
 20
6.603081127675789
 42
0.5620869863792796
 10
3.154302672093734
 20
6.613332407690986
 10
3.130064783183743
 20
6.628081127675766
 42
-0.5620869863792799
 10
3.130064783183769
 20
6.638332407690963
 10
3.15430267209376
 20
6.653081127675743
 42
0.5620869863792796
 10
3.154302672093734
 20
6.663332407690941
 10
3.130064783183778
 20
6.678081127675891
 42
-0.5620869863760394
 10
3.130064783183769
 20
6.688332407690918
 10
3.154302672093776
 20
6.703081127675786
 42
0.5620869863760391
 10
3.154302672093734
 20
6.713332407690895
 10
3.130064783183743
 20
6.728081127675789
 42
-0.5620869863792799
 10
3.130064783183769
 20
6.738332407690986
 10
3.15430267209376
 20
6.753081127675766
 42
0.5620869863792796
 10
3.154302672093734
 20
6.763332407690963
 10
3.130064783183743
 20
6.778081127675743
 42
-0.5620869863792799
 10
3.130064783183769
 20
6.788332407690941
 10
3.154302672093725
 20
6.803081127675891
 42
0.5620869863760394
 10
3.154302672093734
 20
6.813332407690918
 10
3.130064783183727
 20
6.828081127675786
 42
-0.5620869863760394
 10
3.130064783183769
 20
6.838332407690895
 10
3.15430267209376
 20
6.85308112767579
 42
0.5620869863792796
 10
3.154302672093734
 20
6.863332407690986
 10
3.130064783183774
 20
6.878081127675817
 42
-0.2617834247897967
 10
3.127183727638765
 20
6.883206767683386
 10
3.127183727638822
 20
6.898206767683372
 42
0.4142135623730951
 10
3.112183727638893
 20
6.913206767683359
 10
2.959683727638747
 20
6.913206767683416
 42
1.000000000000003
 10
2.959683727638747
 20
6.848206767683418
 10
2.985183727638712
 20
6.848206767683475
 42
-0.4142135623741691
 10
3.047183727638838
 20
6.786206767683406
 10
3.047183727639065
 20
6.503206767683391
 42
-0.4142135623753149
 10
3.017183727638865
 20
6.473206767683418
 10
2.957183727638692
 20
6.473206767683475
 42
1.000000000000003
 10
2.957183727638692
 20
6.413206767683359
 10
3.032183727638738
 20
6.413206767683302
 42
-0.4142135623708752
 10
3.047183727638838
 20
6.398206767683372
 10
3.047183727638838
 20
6.336206767683361
 42
0.4142135623730951
 10
3.172183727638838
 20
6.211206767683361
 10
3.592183727638911
 20
6.211206767683361
 42
0.4142135623730951
 10
3.717183727638911
 20
6.336206767683361
 10
3.717183727638853
 20
6.512206767683405
 42
-0.4142135623730951
 10
3.779183727638809
 20
6.574206767683417
 10
4.395183727638794
 20
6.574206767683417
 10
4.405183727638785
 20
6.584206767683408
 10
4.415183727638776
 20
6.574206767683417
 10
4.655183727638785
 20
6.574206767683474
 42
0.4142135623736322
 10
4.717183727638911
 20
6.636206767683429
 10
4.717183727638797
 20
6.732206767683432
 42
0.4142135623720546
 10
4.685183727638758
 20
6.764206767683358
 10
4.6491837276387
 20
6.764206767683358
 42
0.4142135623730951
 10
4.617183727638774
 20
6.732206767683432
 10
4.617183727638831
 20
6.706206767683365
 42
-0.4142135623741354
 10
4.585183727638849
 20
6.674206767683326
 10
4.249183727638836
 20
6.674206767683269
 42
-0.4142135623720546
 10
4.217183727638911
 20
6.706206767683365
 10
4.217183727638911
 20
6.739206767683381
 42
1.000000000000003
 10
4.167183727638729
 20
6.739206767683381
 10
4.167183727638558
 20
6.706206767683365
 42
-0.4142135623720542
 10
4.135183727638803
 20
6.674206767683326
 10
3.779183727638809
 20
6.674206767683383
 42
-0.4142135623730951
 10
3.717183727638911
 20
6.736206767683338
 10
3.717183727639075
 20
6.870912089812772
 42
-0.2615444197927954
 10
3.746907257050628
 20
6.923848178130361
 42
0.1043853303382477
 10
3.830487419936894
 20
7.002583238271567
 42
-0.2456640164004944
 10
3.881404070737261
 20
7.029206767683344
 10
3.960183727638849
 20
7.029206767683287
 42
0.4142135623741354
 10
3.992183727638774
 20
7.061206767683383
 10
3.992183727638831
 20
7.10420676768339
 42
0.4142135623730951
 10
3.960183727638849
 20
7.136206767683429
 10
3.895013029451291
 20
7.136206767683511
 42
-0.4242475728052315
 10
3.880021768266455
 20
7.151718713075833
 42
0.060165785734605
 10
3.874292466035011
 20
7.218135095328385
 42
-0.4759931499287762
 10
3.888974592207404
 20
7.236206767683338
 10
3.967183727638911
 20
7.236206767683395
 42
1.000000000000003
 10
3.967183727638911
 20
7.286206767683406
 10
3.886139710143169
 20
7.286206767683353
 42
-0.2522636525026526
 10
3.834359501568684
 20
7.3141067676833
 42
0.108059368819834
 10
3.749350356637965
 20
7.397058380586667
 42
-0.7427395997010592
 10
3.764792737428904
 20
7.456206950501341
 42
0.9983243278773443
 10
3.764683727638811
 20
7.52120676768342
 10
3.647183727638747
 20
7.521206767683363
 42
-0.4142135623753149
 10
3.632183727638874
 20
7.536206767683406
 10
3.632183727639045
 20
7.78420676768334
 42
-0.4142135623720546
 10
3.6641837276388
 20
7.816206767683379
 10
4.31718372763882
 20
7.816206767683322
 42
-0.4142135623730951
 10
4.332183727638692
 20
7.801206767683392
 10
4.332183727638806
 20
7.796206767683397
 42
0.4142135623697654
 10
4.342183727638911
 20
7.786206767683406
 10
4.492183727638774
 20
7.786206767683406
 42
0.4142135623664355
 10
4.502183727638765
 20
7.796206767683397
 10
4.502183727638822
 20
7.801206767683392
 42
-0.4142135623708753
 10
4.517183727638865
 20
7.816206767683379
 10
6.12318372763886
 20
7.816206767683379
 10
6.133183727638851
 20
7.82620676768337
 10
6.143183727638842
 20
7.816206767683379
 10
6.533183727638714
 20
7.816206767683322
 42
-0.4142135623753149
 10
6.548183727638814
 20
7.801206767683392
 10
6.548183727638814
 20
7.796206767683397
 42
0.4142135623730951
 10
6.558183727638805
 20
7.786206767683406
 10
6.708183727638896
 20
7.786206767683406
 42
0.4142135623730951
 10
6.718183727638887
 20
7.796206767683397
 10
6.71818372763883
 20
7.801206767683392
 42
-0.4142135623730951
 10
6.73318372763876
 20
7.816206767683379
 10
7.12318372763886
 20
7.816206767683379
 10
7.133183727638851
 20
7.82620676768337
 10
7.143183727638842
 20
7.816206767683379
 10
8.829183727638763
 20
7.816206767683322
 42
-0.4142135623708753
 10
8.844183727638863
 20
7.801206767683392
 10
8.844183727638863
 20
7.796206767683397
 42
0.4142135623730951
 10
8.854183727638854
 20
7.786206767683406
 10
9.004183727638718
 20
7.786206767683406
 42
0.4142135623730951
 10
9.014183727638709
 20
7.796206767683397
 10
9.014183727638538
 20
7.801206767683392
 42
-0.4142135623753151
 10
9.029183727638809
 20
7.816206767683379
 10
9.602183727638902
 20
7.816206767683436
 42
-0.4142135623720546
 10
9.634183727638827
 20
7.78420676768334
 10
9.6341837276386
 20
7.553206767683345
 42
-0.414213562371014
 10
9.602183727638902
 20
7.52120676768342
 10
9.489183727638845
 20
7.521206767683363
 42
0.4142135623720546
 10
9.457183727638692
 20
7.489206767683381
 10
9.457183727638465
 20
7.318206767683332
 42
-0.414213562371014
 10
9.425183727638767
 20
7.286206767683406
 10
9.412183727638847
 20
7.286206767683463
 42
1.000000000000003
 10
9.412183727638847
 20
7.236206767683338
 10
9.44218372763882
 20
7.236206767683396
 42
-0.4142135623753151
 10
9.457183727638692
 20
7.221206767683352
 10
9.457183727638749
 20
7.151206767683415
 42
-0.4142135623753151
 10
9.44218372763882
 20
7.136206767683429
 10
9.329183727638763
 20
7.136206767683373
 42
0.414213562371014
 10
9.297183727638838
 20
7.10420676768339
 10
9.297183727639009
 20
7.061206767683383
 42
0.4142135623720546
 10
9.329183727638763
 20
7.029206767683344
 10
9.44218372763882
 20
7.029206767683288
 42
-0.4142135623730951
 10
9.457183727638692
 20
7.014206767683358
 10
9.457183727638806
 20
6.689206767683426
 42
-0.4142135623753151
 10
9.44218372763882
 20
6.674206767683326
 10
9.352183727638902
 20
6.674206767683325
 42
-0.4142135623686552
 10
9.337183727638802
 20
6.689206767683426
 10
9.3371837276388
 20
6.739206767683382
 42
1.250000000000692
 10
9.297183727638838
 20
6.739206767683381
 10
9.297183727638781
 20
6.706206767683365
 42
-0.4142135623730951
 10
9.265183727638685
 20
6.674206767683326
 10
8.752183727638765
 20
6.674206767683269
 42
-0.4142135623741356
 10
8.72018372763884
 20
6.706206767683365
 10
8.720183727638953
 20
6.732206767683432
 42
0.4142135623741356
 10
8.688183727638687
 20
6.764206767683358
 10
8.652183727638856
 20
6.764206767683358
 42
0.4142135623720546
 10
8.620183727638703
 20
6.732206767683432
 10
8.620183727638533
 20
6.636206767683429
 42
0.414213562373632
 10
8.682183727638829
 20
6.574206767683417
 10
8.922183727638838
 20
6.574206767683417
 10
8.932183727638829
 20
6.584206767683408
 10
8.94218372763882
 20
6.574206767683417
 10
9.432183727638829
 20
6.57420676768336
 42
-0.4142135623730951
 10
9.447183727638702
 20
6.559206767683431
 10
9.447183727638758
 20
6.519206767683353
 42
-0.4142135623753149
 10
9.432183727638829
 20
6.504206767683367
 10
9.392183727638865
 20
6.504206767683424
 42
0.414213562373095
 10
9.377183727638765
 20
6.489206767683381
 10
9.377183727638822
 20
6.469206767683399
 42
0.4142135623730951
 10
9.392183727638865
 20
6.454206767683412
 10
9.505183727638694
 20
6.454206767683412
 42
0.4142135623741356
 10
9.537183727638847
 20
6.486206767683338
 10
9.53718372763879
 20
7.40920676768334
 42
-0.4142135623741356
 10
9.569183727638773
 20
7.441206767683379
 10
9.682183727638829
 20
7.441206767683322
 42
0.4142135623720542
 10
9.714183727638754
 20
7.473206767683418
 10
9.714183727638811
 20
7.89620676768342
 42
0.4142135623730951
 10
9.699183727638882
 20
7.911206767683406
 10
3.56718372763882
 20
7.911206767683348
 42
0.414213562375315
 10
3.55218372763872
 20
7.89620676768342
 10
3.552183727638833
 20
7.38120676768332
 42
0.4142135623720546
 10
3.584183727638873
 20
7.349206767683394
 10
3.602183727638902
 20
7.349206767683392
 42
-0.8768519866361367
 10
3.650892818547817
 20
6.979626415049061
 42
0.3393757862614338
 10
3.627183727638765
 20
6.948719120983664
 10
3.627183727638765
 20
6.376206767683324
 42
-1.000000000000003
 10
3.457183727638692
 20
6.376206767683324
 10
3.457183727638522
 20
6.88120676768332
 42
0.4142135623720546
 10
3.425183727638767
 20
6.913206767683359
 10
3.377183727638765
 20
6.913206767683359
 10
3.348195494764552
 20
6.884218534809375
 42
0.4860029170188578
 10
3.348842442089988
 20
6.878824920445335
 10
3.374302672093803
 20
6.863332407690941
 42
-0.5620869863760394
 10
3.374302672093762
 20
6.853081127675832
 10
3.350064783183805
 20
6.83833240769088
 42
0.5620869863760394
 10
3.350064783183796
 20
6.828081127675854
  0
ENDSEC
  0
SECTION
  2
OBJECTS
  0
DICTIONARY
  5
C
330
0
100
AcDbDictionary
  3
ACAD_GROUP
350
D
  3
ACAD_LAYOUT
350
1A
  3
ACAD_MLINESTYLE
350
17
  3
ACAD_PLOTSETTINGS
350
19
  3
ACAD_PLOTSTYLENAME
350
E
  3
ACDBHEADERROUNDTRIPXREC
350
2B2
  0
DICTIONARY
  5
2D4
330
1F
100
AcDbDictionary
280
     1
  3
ACAD_LAYOUTSELFREF
360
2D5
  0
DICTIONARY
  5
2D2
330
1B
100
AcDbDictionary
280
     1
  3
ACAD_LAYOUTSELFREF
360
2D3
  0
DICTIONARY
  5
D
102
{ACAD_REACTORS
330
C
102
}
330
C
100
AcDbDictionary
  0
DICTIONARY
  5
1A
102
{ACAD_REACTORS
330
C
102
}
330
C
100
AcDbDictionary
  0
DICTIONARY
  5
17
102
{ACAD_REACTORS
330
C
102
}
330
C
100
AcDbDictionary
  3
STANDARD
350
18
  0
DICTIONARY
  5
19
102
{ACAD_REACTORS
330
C
102
}
330
C
100
AcDbDictionary
  0
ACDBDICTIONARYWDFLT
  5
E
102
{ACAD_REACTORS
330
C
102
}
330
C
100
AcDbDictionary
281
     1
  3
Normal
350
F
100
AcDbDictionaryWithDefault
340
F
  0
DICTIONARY
  5
2B2
102
{ACAD_REACTORS
330
C
102
}
330
C
100
AcDbDictionary
  3
CEPSNTYPE
350
2BC
  3
FINGERPRINTGUID
350
2BD
  3
HYPERLINKBASE
350
2B5
  3
INSUNITS
350
2BB
  3
LAYOUTDICT
350
2B7
  3
LWETCUNION
350
2BA
  3
PLOTSETDICT
350
2B8
  3
PLOTSTYLNAMDICT
350
2B9
  3
PSVPSCALE
350
2BF
  3
PUCSBASE
350
2C2
  3
PUCSORGBACK
350
2C8
  3
PUCSORGBOTTOM
350
2C4
  3
PUCSORGFRONT
350
2C7
  3
PUCSORGLEFT
350
2C5
  3
PUCSORGRIGHT
350
2C6
  3
PUCSORGTOP
350
2C3
  3
PUCSORTHOREF
350
2C0
  3
PUCSORTHOVIEW
350
2C1
  3
STYLESHEET
350
2B6
  3
TSTACKALIGN
350
2B3
  3
TSTACKSIZE
350
2B4
  3
UCSBASE
350
2CB
  3
UCSORGBACK
350
2D1
  3
UCSORGBOTTOM
350
2CD
  3
UCSORGFRONT
350
2D0
  3
UCSORGLEFT
350
2CE
  3
UCSORGRIGHT
350
2CF
  3
UCSORGTOP
350
2CC
  3
UCSORTHOREF
350
2C9
  3
UCSORTHOVIEW
350
2CA
  3
VERSIONGUID
350
2BE
  0
XRECORD
  5
2D5
102
{ACAD_REACTORS
330
2D4
102
}
330
2D4
100
AcDbXrecord
340
1F
  0
XRECORD
  5
2D3
102
{ACAD_REACTORS
330
2D2
102
}
330
2D2
100
AcDbXrecord
340
1B
  0
MLINESTYLE
  5
18
102
{ACAD_REACTORS
330
17
102
}
330
17
100
AcDbMlineStyle
  2
STANDARD
 70
     0
  3

 62
   256
 51
90.0
 52
90.0
 71
     2
 49
0.5
 62
   256
  6
BYLAYER
 49
-0.5
 62
   256
  6
BYLAYER
  0
ACDBPLACEHOLDER
  5
F
102
{ACAD_REACTORS
330
E
102
}
330
E
100
AcDbPlaceHolder
280
     0
  0
XRECORD
  5
2BC
102
{ACAD_REACTORS
330
2B2
102
}
330
2B2
100
AcDbXrecord
 90
        0
  0
XRECORD
  5
2BD
102
{ACAD_REACTORS
330
2B2
102
}
330
2B2
100
AcDbXrecord
  1
{DC175E3D-AE85-11D5-9A93-0040C77E826B}
  0
XRECORD
  5
2B5
102
{ACAD_REACTORS
330
2B2
102
}
330
2B2
100
AcDbXrecord
  1

  0
XRECORD
  5
2BB
102
{ACAD_REACTORS
330
2B2
102
}
330
2B2
100
AcDbXrecord
 90
        1
  0
XRECORD
  5
2B7
102
{ACAD_REACTORS
330
2B2
102
}
330
2B2
100
AcDbXrecord
340
1A
  0
XRECORD
  5
2BA
102
{ACAD_REACTORS
330
2B2
102
}
330
2B2
100
AcDbXrecord
 90
    10781
  0
XRECORD
  5
2B8
102
{ACAD_REACTORS
330
2B2
102
}
330
2B2
100
AcDbXrecord
340
19
  0
XRECORD
  5
2B9
102
{ACAD_REACTORS
330
2B2
102
}
330
2B2
100
AcDbXrecord
340
E
  0
XRECORD
  5
2BF
102
{ACAD_REACTORS
330
2B2
102
}
330
2B2
100
AcDbXrecord
 40
0.0
  0
XRECORD
  5
2C2
102
{ACAD_REACTORS
330
2B2
102
}
330
2B2
100
AcDbXrecord
340
0
  0
XRECORD
  5
2C8
102
{ACAD_REACTORS
330
2B2
102
}
330
2B2
100
AcDbXrecord
 10
0.0
 20
0.0
 30
0.0
  0
XRECORD
  5
2C4
102
{ACAD_REACTORS
330
2B2
102
}
330
2B2
100
AcDbXrecord
 10
0.0
 20
0.0
 30
0.0
  0
XRECORD
  5
2C7
102
{ACAD_REACTORS
330
2B2
102
}
330
2B2
100
AcDbXrecord
 10
0.0
 20
0.0
 30
0.0
  0
XRECORD
  5
2C5
102
{ACAD_REACTORS
330
2B2
102
}
330
2B2
100
AcDbXrecord
 10
0.0
 20
0.0
 30
0.0
  0
XRECORD
  5
2C6
102
{ACAD_REACTORS
330
2B2
102
}
330
2B2
100
AcDbXrecord
 10
0.0
 20
0.0
 30
0.0
  0
XRECORD
  5
2C3
102
{ACAD_REACTORS
330
2B2
102
}
330
2B2
100
AcDbXrecord
 10
0.0
 20
0.0
 30
0.0
  0
XRECORD
  5
2C0
102
{ACAD_REACTORS
330
2B2
102
}
330
2B2
100
AcDbXrecord
340
0
  0
XRECORD
  5
2C1
102
{ACAD_REACTORS
330
2B2
102
}
330
2B2
100
AcDbXrecord
 70
     0
  0
XRECORD
  5
2B6
102
{ACAD_REACTORS
330
2B2
102
}
330
2B2
100
AcDbXrecord
  1

  0
XRECORD
  5
2B3
102
{ACAD_REACTORS
330
2B2
102
}
330
2B2
100
AcDbXrecord
 90
        1
  0
XRECORD
  5
2B4
102
{ACAD_REACTORS
330
2B2
102
}
330
2B2
100
AcDbXrecord
 90
       70
  0
XRECORD
  5
2CB
102
{ACAD_REACTORS
330
2B2
102
}
330
2B2
100
AcDbXrecord
340
0
  0
XRECORD
  5
2D1
102
{ACAD_REACTORS
330
2B2
102
}
330
2B2
100
AcDbXrecord
 10
0.0
 20
0.0
 30
0.0
  0
XRECORD
  5
2CD
102
{ACAD_REACTORS
330
2B2
102
}
330
2B2
100
AcDbXrecord
 10
0.0
 20
0.0
 30
0.0
  0
XRECORD
  5
2D0
102
{ACAD_REACTORS
330
2B2
102
}
330
2B2
100
AcDbXrecord
 10
0.0
 20
0.0
 30
0.0
  0
XRECORD
  5
2CE
102
{ACAD_REACTORS
330
2B2
102
}
330
2B2
100
AcDbXrecord
 10
0.0
 20
0.0
 30
0.0
  0
XRECORD
  5
2CF
102
{ACAD_REACTORS
330
2B2
102
}
330
2B2
100
AcDbXrecord
 10
0.0
 20
0.0
 30
0.0
  0
XRECORD
  5
2CC
102
{ACAD_REACTORS
330
2B2
102
}
330
2B2
100
AcDbXrecord
 10
0.0
 20
0.0
 30
0.0
  0
XRECORD
  5
2C9
102
{ACAD_REACTORS
330
2B2
102
}
330
2B2
100
AcDbXrecord
340
0
  0
XRECORD
  5
2CA
102
{ACAD_REACTORS
330
2B2
102
}
330
2B2
100
AcDbXrecord
 70
     0
  0
XRECORD
  5
2BE
102
{ACAD_REACTORS
330
2B2
102
}
330
2B2
100
AcDbXrecord
  1
{C9FE9C91-B338-49E5-A663-7D6CE4C37775}
  0
ENDSEC
  0
EOF
